VOGONS

Common searches


cue+iso+flac

Topic actions

First post, by eadmaster

User metadata
Rank Newbie
Rank
Newbie

I'm trying to mount a cue sheet mixing an iso and a multi-track flac:

FILE "data.iso" BINARY
TRACK 01 MODE1/2048
INDEX 01 00:00:00
FILE "audio.fla" WAVE
TRACK 02 AUDIO
INDEX 01 00:00:00
TRACK 03 AUDIO
INDEX 01 07:12:30
TRACK 04 AUDIO
INDEX 01 10:10:14
TRACK 05 AUDIO
INDEX 01 13:07:12
TRACK 06 AUDIO
INDEX 01 17:44:43
TRACK 07 AUDIO
INDEX 01 20:48:29
TRACK 08 AUDIO
INDEX 01 25:18:08
TRACK 09 AUDIO
INDEX 01 29:38:68
TRACK 10 AUDIO
INDEX 01 32:48:19
TRACK 11 AUDIO
INDEX 01 37:39:45
TRACK 12 AUDIO
INDEX 01 40:19:68
TRACK 13 AUDIO
INDEX 01 42:58:10
TRACK 14 AUDIO
INDEX 01 46:30:30
TRACK 15 AUDIO
INDEX 01 49:00:40
TRACK 16 AUDIO
INDEX 01 51:46:39
TRACK 17 AUDIO
INDEX 01 52:11:09

According to the docs it should work, but when i try to mount i get on stderr

[..\..\..\..\src\libmpg123\parse.c:802] error: Frame size too big: 9491
[..\..\..\..\src\libmpg123\parse.c:802] error: Frame size too big: 9491
[..\..\..\..\src\libmpg123\parse.c:802] error: Frame size too big: 9491
[..\..\..\..\src\libmpg123\parse.c:1073] error: Giving up searching valid MPEG header after 65536 bytes of junk.
Note: Illegal Audio-MPEG-Header 0x00000000 at offset 65593.
Note: Trying to resync...
Note: Skipped 1024 bytes in input.
[..\..\..\..\src\libmpg123\parse.c:1154] error: Giving up resync after 1024 bytes
- your stream is not nice... (maybe increasing resync limit could help).

on stdout in dosbox:

MSCDEX: Failure: Invalid file or unable to open.