VOGONS

Common searches


Search results

Display options

Re: DOSBox vs forks and patches

I originally wrote that patch over 18 months ago. Afair the only part relevant to making Quake (and Q2dos) produce audio was fixing one bit in a register that represents different things depending on if it's being read vs. being written. The DMA implementation wasn't touched.

Re: CUE sheet troubles :/

The only DOSBoxes that are capable of reading FLAC tracks all use my CDDA patch (https://www.vogons.org/viewtopic.php?f=41&t=62203), which uses dr_flac , not libFLAC . You know that's not true, because you participated in the original FLAC patch thread: https://www.vogons.org/viewtopic.php?f=32&t= …

Re: CUE sheet troubles :/

Not with FLAC. It's lossless and bit-perfect. Seeking might be a bit slower than uncompressed WAV, but still orders of magnitude faster than a CD-ROM drive. You might assume so since it's lossless, but like all codecs it still has a minimum framesize so if the total number of samples is not an …

Re: CUE sheet troubles :/

Depends if the ripping software started dumping the track from index 0 or index 1. If it started ripping at index 0 the pregap is included in the .ogg file, so you'd want this: INDEX 00 00:00:00 INDEX 01 00:00:08 ; 75 frames in one second so 37:55:03 - 37:54:70 = 00:00:08 (length of pregap/index 0 …

Re: CUE sheet troubles :/

Obviously to use a tool to build it properly. Because this: FILE "image.iso" BINARY 2 TRACK 01 MODE1/2048 3 INDEX 01 00:00:00 4 FILE "track02.ogg" MP3 5 TRACK 02 AUDIO 6 PREGAP 00:02:00 7 INDEX 01 00:00:00 Is definitely incorrect. You are basically saying that both tracks start at the same time (00 …

Re: Resolution Issue with Dosbox using a VGA monitor

Right. I should have done so. I tried Surface, Overlay and OpenGl; vgaonly and svga_s3; Aspect=true, Aspect=false. All possible permutations of those options, plus: I started with a baseline of Resolution=Original and then I went and tried the resolutions 640x400 and 320x400, which I determined …

Page 1 of 38